Рыженькая с длинными волосами. [2009 г., sex]

Premium Videos icon Related videos of the week
  • Максим и Лена Биссексуалы
  • Дыши писей глубже) [2012 г., Домашнее]
  • Трахаю свою подружку Наташу
  • Илья зависает на даче.
  • Танька жжёт. [2009 г., Amateur,Ukraine,Solo.]
Рыженькая с длинными волосами. [2009 г., sex]


Рыженькая с длинными волосами.
Год производства: 2009 г.
Жанр: sex
Продолжительность: 00:21:04
Описание: Сначала позирует, ну а потом и сам процессссс
Видео: MPEG4 Video (H264) 640x480
Аудио: AAC 44100Hz stereo
MediaInfo
Video
Format : AVC
Format/Info : Advanced Video Codec
Format profile : High@L3.0
Format settings, CABAC : Yes
Format settings, ReFrames : 4 frames
Codec ID : 7
Duration : 21mn 3s
Bit rate : 512 Kbps
Width : 640 pixels
Height : 480 pixels
Display aspect ratio : 4:3
Frame rate mode : Constant
Frame rate : 29.970 fps
Color space : YUV
Chroma subsampling : 4:2:0
Bit depth : 8 bits
Scan type : Progressive
Bits/(Pixel*Frame) : 0.056
Stream size : 77.1 MiB (88%)
Writing library : x264 core 110
Audio
Format : AAC
Format/Info : Advanced Audio Codec
Format profile : LC
Codec ID : 10
Duration : 21mn 3s
Bit rate : 59.6 Kbps
Channel(s) : 2 channels
Channel positions : Front: L R
Sampling rate : 44.1 KHz
Compression mode : Lossy
Delay relative to vide : 33ms
Stream size : 8.98 MiB (10%)


Рыженькая с длинными волосами. [2009 г., sex]








Tags: